Ffmpeg Hls Audio

The -re option instructs the encoder to read the source at its native frame rate. exe -codecs ). ffmpeg -i video. mkv -map 0:a:1 -c copy audio. Example for a 720p @ 2500 kbps CBR MPEG-2 transport stream: ffmpeg -re -i -s 1280x720 -r 24 -c:v libx264 -x264opts nal-hrd=cbr:force-cfr=1 \ -b:v 2300k -minrate 2300k…. For instance, you can use it to convert videos from one format to the other, convert or split audio files, download HLS videos, etc. FFmpeg on Linux - Audio Video Transcoding Mux Demux FFmpeg on Windows FFmpeg Video Capture from Webcam FFmpeg Http Live Streaming - HLS FFmpeg Command Options FFmpeg Smooth Streaming HTTP vs RTMP Mobile - Streaming MPEG-4 Successor H. It can stream several kinds of media file (which must be stored in the current working directory - i. ts file segments are not listed in the. The cpu usage is at least half though which is a nice gain. There is a single tutorial that shows the basics of ffmpeg and auto-generated doxygen documents. You can choose which decoders to include when building the extension, as documented in the extension's README. Latest reply on Oct 28, 2017 11 My segments are video-only 4 seconds ffmpeg-encoded. Contoh : cd C:\Program Files\vMix\streaming #mpeg1/2 mpeg 1/2/3 vmix #ffmpeg -f dshow -i video="vMix Video":audio="vMix Audio" -b:v 1500k -f mpegts udp://224. ffmpeg is the swiss army knife for video/audio encoding and muxing and therefore the perfect utility for downloading encrypted HLS content. When my organization started streaming live online, we went with YouTube. Raspberry Pi Live Streaming with USB Webcam Xiao Ling / September 25, 2017 October 29, 2019 / RaspberryPi / camera , ffmpeg , nginx , Raspberry Pi , Webcam 5 comments For the past week, I was looking for a live streaming solution to broadcast video from a USB webcam that connects to Raspberry Pi. Make sure to give console the master/playlist. HLS Stream through ffmpeg to Wowza Hello I am trying to stream an HLS input through ffmpeg into RTMP output on Wowza cloud but don't know how to do it. ext -acodec aac -b:a 192k -ac 2 -ar 48000 -f mp4 audio. The command ffmpeg -codecs will print every codec FFmpeg knows about. 2 Stream copy 4 Stream selection 5 Options 5. Description. Default is: "copy". This will seem familiar if you have used FFmpeg to create VOD (non-live) DASH streams. showspatial A->V Convert input audio to a spatial video output. ts) first with running ffmpeg commands. Or make them available offline. It works but there is a 20s delay between the time the stream starts to the time it actually starts playing. Convert various audio files to MP3 or AAC. nut -hls_segment_filename 'file%03d. I have switched to a new web player that will allow me to support Subtitle Tracks and Audio tracks selections. mkv ffmpeg -i input. Provide details and share your research! But avoid … Asking for help, clarification, or responding to other answers. It is important to note that DVB standards such as DVB-T, 8VSB, and DVB-S only support MPEG-2 as the encoding standard (H. For example: ffmpeg -i in. 1:554/11 -map 0 - c:v libx265 -vb 300k -c:a aac -ab 38k -ar. Recently, We were working on a project where we need to show a video with multiple audios and captions associated with it. 04 # sudo apt-get update # sudo apt-get -y install autoconf automake build-essential libass-dev libfreetype6-dev libgpac-dev \ libsdl1. FFmpeg + Decklink + Libklvanc We use deckling card to ingest network stream. CubUI 5,285 views. m3u8 playlist file as shown below. Most audio codecs encode using a fixed sample rate and sample count per frame. Find a Database. 100 Stream #0:0: Video: h264 (H264 / 0x34363248), yuv420p, 1440x1080 [SAR 4:3 DAR 16:9], q=2-31, 25 fps, 1k tbn, 90k tbc Stream #0:1: Audio: ac3 ([0] [0][0] / 0x2000), 48000 Hz, stereo, 256 kb/s Stream mapping: Stream #0:0 -> #0:0 (copy) Stream #0:1 -> #0:1 (copy) Press. mkv -an -c copy video. ts file segments are not listed in the. Apple HTTP Live Streaming (HLS) has been a nightmare to get working. HLS : Similar method to facebook live streams. For compressed formats, you can select also libopus and aac which will work very well (target at least 64 kbs per channel). Resize video. 4(unfortunately a value I cannot change in my application). ls /dev/video* gives you a list of all video capture devices. m3u8 but I wanted to know how to be able to export this to an http address and have it be ready for an http request for the stream. The line below can be used as a starting point for FFmpeg. so i create a hls files(. Since all most all the video streaming services use web-optimized video MP4 format, we are going to download M3U8 video files with FFmpeg and convert them to MP4 format. Watching video using VLC: video starts at 0 seconds but the first 2 seconds are only audio. Basically it decodes the audio/video of one format to encode it into another. ffplay rtmp://localhost/hls/tes -analyzeduration 1000 Selanjutnya saya akan mencoba untuk menambahkan logo, logo. GitHub Gist: instantly share code, notes, and snippets. Coming to the features, the HLS standard also supports adaptive bitrate streaming. mkv Convert MKV (with MJPEG encoding) to JPEG Image Sequence. Transcoding to DASH and HLS with FFmpeg For my previous post , I wanted to include a short video as a proof of the concept I was discussing. This was the tool used to measure the overhead from FFmpeg above. avoid the gap is to play two separate streams and sync them using the technique described in this year's Advances in HTTP Live Streaming WWDC talk. ffmpeg video converter Synopsis. This slows the stream down to simulate live streaming and mitigates buffering and memory buildup that can disrupt playback. mp4 -c:v vp9 -c:a libvorbis output. [input-file] is the video file or the stream URL. At its core is the FFmpeg program itself, designed for command-line-based processing of video and audio files, and widely used for format transcoding, basic editing (trimming and concatenation), video scaling, video post. ffmpeg [global_options] {[input_file_options] -i input_url} {[output_file_options] output_url} Description. FFMPEG will accept your. 6 and on one can set the service type of the mpegts stream as radio. I am using following command to create a hls aac audio file for web streaming. post314-g78a3d57 | about patchwork patch tracking system | version v2. I have integrated the ffmpeg wrapper using pods and generated all the segmented. audio learning tutorial compression h264 video ffmpeg hls guide handson dash codec video-codec h265 adaptive-streaming arithmetic-coding vp9 bitstream av1 frame-types Updated Apr 29, 2020. mkdir hls\video720 mkdir hls\video480 mkdir hls\video360 mkdir hls\video240 mkdir hls\audio ffmpeg -y -i source. ts mpeg-ts h264 file to m3u8 - Forum dedicated to FFmpeg; a free / open source multimedia software project that produces libraries and programs to record, convert and stream audio and video. You can also use DRM for HLS packaging. Now we want to run FFMPEG so that it listens on the ports we specified, captures the unicast video and audio data, transcodes it into HLS segments and stores the HLS data to a publicly accesible area of your web server. audio="virtual-audio-capturer" where "virtual-audio-capturer" is the audio capture device And everithing that follow is the commandline and parameter used by ffmpeg to capture and compress in two pass the video (and audio) to get x264/acc mp4 file. Now feel free to try it with your audio device. FFmpeg and libav are among the most popular open-source multimedia manipulation tools with a library of plugins that can be applied to various parts of the audio and video processing pipelines and have achieved wide adoption across the world. m3u8, and segment files: file000. mp4 -t 60 -c copy output_clip. thanks for your feedback:). js could be loaded directly from a tag, it should be loaded from a Web Worker to prevent blocking the main thread. Say for example, to convert mp4 file to avi file, run: $ ffmpeg -i video. Thanks for contributing an answer to Raspberry Pi Stack Exchange! Please be sure to answer the question. $ ffprobe -show_format ~/Videos/A\ Movie. This can help to reduce audio and video sync issues when delivering a live feed or creating VOD content. exe -i source. See more: ffmpeg wowza hls, ffmpeg android hls player, ffmpeg play hls, mp4 http streaming, android play hls ffmpeg, hls video android ffmpeg, android hls ffmpeg, pass rtmp http live streaming, ffmpeg android http streaming, ios video broadcasting rtmp http streaming, ffmpeg android hls, ffmpeg hls player, android ffmpeg http streaming, android. m3u8 streams) are a little harder to come by due to the nature of the technology. Mp4 to HLS using ffmpeg ios,video,ffmpeg,m3u8,hls I'm trying to convert a local. You can view it as an extension to the standard HTML5 video/audio functionality that allows the media element to play HLS (the most widely-used live streaming format) & MPEG-DASH (the promising up-and-comer). 0+0,24 -vcodec libx264 -vpre lossless_ultrafast -threads 0 video. mkv -c copy audio. m3u8 and its corresponding segmentsfile. 使用ffmpeg将测试视频和音频转为mpeg ts格式文件 ffmpeg -i /var/flvs/baluobu. ffmpeg [input-options] -i [input-file] [output-options] [output-stream-URI]Where: [input-options] apply to the input, or source, file. Using FFmpeg with Red5 Pro for live streaming Introduction. js inside of a web worker, we just need to call importScripts('ffmpeg. • A playlist file provides the list of all chunks. Notice that the file extension of the output has to match the codec used. mts -vcodec copy -acodec copy -map 0:0 -map 1:1 delay1. FFmpeg is a free software that can record, convert (decode/encode), and stream both video and audio. 36 CVE-2017-17081: 125: DoS 2017-11-30: 2018-01-28. exe ^ -i "C:\Temp\ffmpeg\big_buck_bunny. /ffmpeg -formats command to list all supported formats. In this case what it needs to encode/decode in aac-ar 44100: audio sampling rate in Hz-ab 128k: audio bitrate, 128k is 128 kilobits-ac 2: number of audio channels, 2 is stereo. Tag: ios,video,ffmpeg,m3u8,hls I'm trying to convert a local. × Hi Uppy friend! To celebrate 1. 0 we're offering coupons to knock 20% off any plan. From ffmpeg v2. Quick guide: 1. • Playlist and chunks can either be pre-processed, or be prepared upon request. Restreaming a m3u8 HLS stream to Youtube using FFMPEG. m4a -c:v copy -c:a copy output. ts, file001. FFmpeg helped me in transcoding AAC streams to MP3 for the AIR on iOS app. 1 DISI - University of Trento [email protected] For example: The file in. All you have to do is execute a single line command. Like Like. If you are new to this tool, here are some handy commands that will give you a better idea about the capabilities of this powerful tool. 3 AVOptions 5. Since its original introduction in 2009, Apple has maintained the official HLS protocol specification as an informational IETF Internet Draft, updating it at least bi-annually to maintain its status as an IETF working document. more options for ffmpeg recording protocol-support-on-obs-multiplatform-mpeg-dash-hls. So it is really simple to acquire or repurpose an HLS streaming, simply specify the path to. FFmpeg is the swiss army knife for anything with video and audio. mp3 \ -threads 0 -muxdelay 0 -y \ -map 0 -pix_fmt yuv420p -vsync 1 -async 1 -vcodec libx264 -r 29. Find a Database. 3) The lack of frame accurate encoding present on Mac OS, but not available for iOS Details Here. 2 11/09/2017 fix for hls download via ffmpeg Version 1. a audio part of the stream. The M3U8 playlists describing the segments can be remote HTTP resources or local files, accessed using the standard file protocol. NET Core / Mono. mp4 files, mp4box-prepared. FFmpeg has added a realtime bright flash removal filter to libavfilter. FFmpeg is a complete, cross-platform solution to record, convert and stream audio and video. Convert your audio/video collection to H. and all supported forms will be displayed. FFmpeg is a free and open-source project consisting of a vast software suite of libraries and programs for handling video, audio, and other multimedia files and streams. 04 LTS systems with easy steps. 976fps) output and have a keyframe every two seconds (-g 48 -x264opts no-scenecut). HTTP Live Streaming (HLS) is Apple's standard for live streaming and video on demand for the web. (I have shortened the sample just so long that it actually exposes the problem. Hi, i´m new to ffmpeg and i have a question on how to convert an mkv file to hls (packets) ? I have a mkv containing a) Video in mp4 format (encoded with h264) b) 2 or more audio tracks (encoded as mp3 format) c) 2 or more subtitles (built with srt or WebVTT format). The HLS stream will then be pulled from your Origin URL (either your own server or a third party service that offers HLS). -f hls defines the output format HLS -hls_time 4 slices the video and audio into segments with a duration of 4 seconds. Getting video Information using ffmpeg. Resize video. In this video I stream an IP Camera to a web browser using ffmpeg. c on osx? su. To reduce overhead we can take advantage of a few properties of the encoded media bitstreams. I use the following command to achieve this: ffmpeg -i "$1" -c copy -bsf:a aac_adtstoasc $2. Options 1: From existing rtmp stream already in h264¶ if you have an existing rtmp stream in the correct codec, you can skip ffmpeg and tell nginx to pull the stream directly. You can view it as an extension to the standard HTML5 video/audio functionality that allows the media element to play HLS (the most widely-used live streaming format) & MPEG-DASH (the promising up-and-comer). FFmpeg Commands Make FastStart MP4 for internet video ffmpeg -i in. m4a playlist. 5 Video Options 5. Tech support scams are an industry-wide issue where scammers trick you into paying for unnecessary technical support services. 022ms long, it’s possible for them to not line up at the end of a file. avconv is a very fast video and audio converter that can also grab from a live audio/video source. Diagnostics. I have integrated the ffmpeg wrapper using pods and generated all the segmented. Even though there are several programs that can be used for this purpose, we are going to use FFmpeg as it is an open-source and very powerful application. audio learning tutorial compression h264 video ffmpeg hls guide handson dash codec video-codec h265 adaptive-streaming arithmetic-coding vp9 bitstream av1 frame-types Updated Apr 29, 2020. ext -acodec aac -b:a 192k -ac 2 -ar 48000 -f mp4 audio. In particular, FFMPEG can access any video and audio streams that are accessible to your computer. Hi guys, in Windows10, how can i create a hls file (exporting the corresponding m3u8) from a mkv containing multiple audio tracks and multiple subtitles using FFmpeg? I´m trying to convert an mkv file to be streamed in hls (packets), but didn´t understood how to do it. The PlayHLS plugin enables HLS stream to be played. ts files and the m3u8 file, but some of the. Once you’ve got a console open, check that FFmpeg is installed properly by typing ffmpeg -codecs, which will show you all the codecs you have access to, including audio and video. ) and file formats(mp4, flv, mkv, ts, webm, mp3 etc. I assume kodi uses ffmpeg for playing hls streams, and the HEAD of ffmpeg master currently plays the audio streams fine, so it might just require a. Make sure to give console the master/playlist. You can also turn video files into audio files by using FFmpeg. ts * one audiofile-english. 16 11/11/2017 added option to prefer mp4/m4a demuxed video/audio, new ffmpeg engine. if it is true , so with large video it takes a long time to tarnscode on the fly. I followed your suggestion, but ffmpeg continues downloading the worst quality file. Why is the video gone but the audio is kept? Watching video using MPV: video stars off at 2 seconds and i can't go back any further. Convert Mp4 To Gif Convert Avi To Mp4. With FFmpeg, you can convert between various video and audio formats, set sample rates, and resize videos. ffmpeg -i inputfile. Unreal Media Server – multi-protocol media server for streaming any file format and real time live audio/video to WebRTC, Flash, Silverlight, iOS, STB, HTML5 viewers Unified Streaming Platform origin server for DASH , Smooth , HLS , HDS and progressive download. There should be one HLS Media Playlist per CMAF Track. m4a -c:v copy -c:a copy output. pcm_s24le for 24 bit samples) for uncompressed audio. Vantage enables you to create and distribute Apple HTTP Live Streaming (HLS) files. HTTP Live Streaming from Apple enables video and audio to be sent from a Web server to iPhones, iPods, iPads, desktop computers, and other networked devices. Hi All, I'm attempting to add a still image to an MP3 audio stream coming from an Icecast server. mkv -map 0:a:1 -c copy audio. So I am using a combination of executables: ffmpeg (extract audio for Nero), Nero AAC Encoder (audio encoding), x264 (video encoding), ffmpeg (mux audio/video to create TS file), and an open source segmenter (to create m3u8 for each bitrate). 976fps) output and have a keyframe every two seconds (-g 48 -x264opts no-scenecut). Merging or combining downloaded YouTube video and audio files is pretty simple and straightforward. Musepack decoder MPEG Audio Layer 1/2 -like codec with frames of 1152 samples divided into 32 subbands : libavcodec/mpc7. ffmpeg -i rtsp://192. • Playlist and chunks can either be pre-processed, or be prepared upon request. it Content: The FFmpeg suite 3 What’s inside 3 Get FFmpeg 4 Basic commands 4 FFPlay 5 FFMpeg 6 Video options 6 Audio options 7 Typical tasks and useful examples 8 Obtain info about a video 8 Play. What do all those options mean? Well, first an m4a file for audio is created, with the audio stream encoded in aac with a bitrate of 192 kb. 00048--- via ffmpeg-user [FFmpeg-user] Demuxing HLS stream of fmp4 segments Pedro Pedrosa Re: [FFmpeg-user] Demuxing HLS stream of fmp4 segments vectronic. audio learning tutorial compression h264 video ffmpeg hls guide handson dash codec video-codec h265 adaptive-streaming arithmetic-coding vp9 bitstream av1 frame-types Updated Apr 29, 2020. FFmpeg is powerful audio and video converter, so It’s possible to convert media files between different formats. Resize video. To disable this behavior and manually choose desired streams use the -map option. HTTP Live Streaming protocol, better known as HLS, was originally created by Apple for the launch of iPhone 3. ffmpeg can create. I have one line of code here but seemingly there is an audio issue. exe ^ -i "C:\Temp\ffmpeg\big_buck_bunny. It keeps disconnecting or dropping and sometimes doesn't connect at all, just giving me errors. No re-encoding occurs. Latest reply on Oct 28, 2017 11 My segments are video-only 4 seconds ffmpeg-encoded. ffmpeg -y -i song. It is multi-platform and work on Linux, Unix, MacOs and Windows with same native look and feel of each operating system. The server is on a Raspberry Pi and the LMS is on another Pi running picoreplayer. 利用ffmpeg采集纯音频推流到LiveQing实现RTMP、FLV、HLS web直播与录像回放 本地搭建直播流媒体服务 LiveQing直播点播流媒体服务下载. The -vcodec copy -acodec copy part instructs ffmpeg to use the same video and audio codec as in the original file (input. Discover the world's research 16+ million members. 264 video data: ffmpeg -i video. for development we use it on Mac for testing and just stream a video source from a input movie. How to record part of an HLS-streamed audio and upload it to YouTube as an audio podcast: This “how-to” information is a guide to how I managed to meet five requirements related to this task, which at first seemed difficult to achieve. ffmpeg video converter Synopsis. FFmpeg is a free and open-source project consisting of powerful audio and video converter software suite of libraries and programs for handling video, audio, and other multimedia files and streams. FFmpeg is a multiplatform, open-source library to record, convert and stream video and audio files. -f hls -hls_time 4 -hls_playlist_type event stream. At its core is the FFmpeg program itself, designed for command-line-based processing of video and audio files, and widely used for format transcoding, basic editing (trimming and concatenation), video scaling, video post. I have switched to a new web player that will allow me to support Subtitle Tracks and Audio tracks selections. You can also use DRM for HLS packaging. A Few Technical Issues. mp4) and two audio files (f1-v1. × Hi Uppy friend! To celebrate 1. FFmpeg image sequence to MP4 video with slow frame rate by Dhirendra Bisht 4 years ago (new activity on April 5, 2016) 1: 4 years ago Reuben Martin: ffmpeg adding white flash frame at end of. Header files will be needed during the compile, so it is not enough to install a prebuilt binary using a package manager. This module aims to serve audio-only track directly on NGINX, without the necessity to. FFmpeg has added a realtime bright flash removal filter to libavfilter. 5 to 2 seconds before it starts reading the next 13 frames from the next segment. mov" -vn -acodec pcm_16le "transcoded video. Introduction In this post, we will see how you can use FFmpeg libraries in your application and decode movie files. 265 Iptv Streaming Ip Video G711 Audio Encoder,Ip Video Encoder,Hd Encoder,H. A basic FFmpeg command uses the format. The FFMPEG seems to sit comfortably around 23-25% load. mkv -map 0 -c copy -c:s mov_text -metadata:s:s:0 language=eng -metadata:s:s:1 language=ipk output. A master playlist contains references to different variant streams (typically encoded at different bit rates) and can also include links to alternative audio tracks and audio-only renditions. Getting video Information using ffmpeg. Each lesson covers theory and practice so you can choose the best option and use the optimal command syntax. The default value in FFmpeg is 2 seconds. I have one line of code here but seemingly there is an audio issue. mkv ffmpeg -i input. FFmpeg is a free and open-source project consisting of a vast software suite of libraries and programs for handling video, audio, and other multimedia files and streams. × Hi Uppy friend! To celebrate 1. This article has been superseded by this article entitled, An FFmpeg Script to Render and Package a Complete HLS Presentation. HLS streaming. Convert single large. Example for a 720p @ 2500 kbps CBR MPEG-2 transport stream: ffmpeg -re -i -s 1280x720 -r 24 -c:v libx264 -x264opts nal-hrd=cbr:force-cfr=1 \ -b:v 2300k -minrate 2300k…. avconv is a very fast video and audio converter that can also grab from a live audio/video source. For example: ffmpeg -i in. I am taking dranger's first tutorial as the source and I will build it using Visual C++ 6. How to Convert MP4 to HLS with FFmpeg FFmpeg is a free to use software project that includes a number of programs and suite of libraries to handle audio, video, and other types of streams and multimedia files. A complete, cross-platform solution to record, convert and stream audio and video. mkv files with H. Transcode MKV to MP4 or MP4/M4V to MKV in 1 minute. Historical & Special Collections. MediaElement. ls /dev/video* gives you a list of all video capture devices. FFmpeg is a free (opensource) software that is described as "A complete, cross-platform solution to record, convert and stream audio and video. The LMS log shows the following when trying to use v2:. Produce Videos with FFmpeg: The Beginner's Course You will learn to use FFmpeg, Bento4, and Apple's HLS tools to produce optimized videos for delivery to HLS and DASH clients. 2 is now available on opus qtrle tiertexseqvideo xan_wc3 adpcm_ima_rad bmv_audio ffwavesynth libopus paf_audio r10k tiff xan_wc4 adpcm_ima_smjpeg bmv_video fic libvpx_vp8 paf_video r210 tmv xbin adpcm_ima_ssi brender_pix fits libvpx_vp9 pam ra_144 truehd xbm adpcm_ima_wav c93 flac loco pbm ra_288 truemotion1 xface adpcm_ima_ws. 265 HDMI HD HEVC IPTV Video Encoder Support WiFi, HLS M3U8 ffmpeg VLC, HTTP RTSP RTMP RTMPS UDP ONVIF for Youtube, Facebook, Wowza Live Streaming -FBE204-H. Unreal Media Server – multi-protocol media server for streaming any file format and real time live audio/video to WebRTC, Flash, Silverlight, iOS, STB, HTML5 viewers Unified Streaming Platform origin server for DASH , Smooth , HLS , HDS and progressive download. 5, resize the video size (resolution) by 0. To achieve that I developed a group of bash scripts that are able to trim a HLS stream using ffmpeg. This hls script is launched by an upstart job. If it still tells you that it doesn’t recognize the command, double check that you successfully added the ffmpeg bin folder to the system path. If you’re particular about the audio data you can use -ar to specify the audio sample rate (kHz) and -ac to specify the number of channels (1 for mono, 2 for stereo). As before, FFmpeg converted the WAV file to AAC and produced the muxed file. It is the default media streaming protocol for all iOS devices. Android HLS plays first segment then only audio. Example: "h264"--ffmpeg-audio-transcode CODEC¶ When muxing streams transcode the audio to this CODEC. Following is a sample worker. 📼 Python FFmpeg Video Streaming. But for now burn in is our best option as not all clients support webvtt and without ffmpeg support it would have to be a custom solution. The output filename specifies the playlist filename. Using an HTML5 video player. ogg newfilename. Includes audio if input provides it. Convert various audio files to MP3 or AAC. This will make a Matroska container with a VP9 video stream and a Vorbis audio stream, essentially the same as the WebM we made earlier. Explore Library Resources. This package uses the FFmpeg to package media content for online streaming such as DASH and HLS. The video is served using nginx web browser set up on Ubuntu linux. Recently, We were working on a project where we need to show a video with multiple audios and captions associated with it. mkv ffmpeg -i input. Downloading HLS videos with FFmpeg is way easier than you think. FFmpeg is an open-source audio/video processing software which is capable of grabbing, publishing, downloading and transcoding media streams in real-time and via post-processing. $ ffprobe -show_format ~/Videos/A\ Movie. This was solved by adding the #EXT-X-DISCONTINUITY tag after each url. mkv is a Matroska container file and accepts video, audio and subtitle streams, so ffmpeg will try to select one of each type. To merge video, audio and subtitles to one file without changing the quality (remux only) ffmpeg -i video. Rtsp Player Linux. Development Examples. HLS audio gets shortly muted on discontinuity 658 Views 1 Reply. /ffmpeg -formats command to list all supported formats. The HLS stream will then be pulled from your Origin URL (either your own server or a third party service that offers HLS). DashCast should be compatible with the dash. Home Blog Django Technology Video, Audio Transmuxing into HLS using FFmpeg HLS Muxer in Django. ffmpeg can use several filters to visualize audio: avectorscope, showspectrum, and showwaves. Historical & Special Collections. I'm currently trying to crack the "Multiple Audio Renditions" nut; I use JWPlayer 7 in my everyday job and they recently released support for alternate audio streams for HLS as described in this part of the standard (Master Playlist with. ts file segments are not listed in the. FFmpeg utility supports almost all major audio and video formats, if you want to check the ffmpeg supported available formats you can use. configuration: --toolchain=hardened --prefix=/usr --target-os=linux --enable-cross-compile --extra-cflags=--static --enable-gpl --enable-static --disable-doc. mts -itsoffset 2. mp4 - 480p f2-v1. FFmpeg is a free and open-source project consisting of a vast software suite of libraries and programs for handling video, audio, and other multimedia files and streams. FFmpeg is a free and open-source project consisting of a vast software suite of libraries and programs for handling video, audio, and other multimedia files and streams. Just for fun, I converted audio. × Hi Uppy friend! To celebrate 1. c in FFmpeg libswresample through 3. These examples use -c copy to stream copy (re-mux) from the input to to the output. 4 Streaming by HLS & MPEG-DASH • HLS and MPEG-DASH are the two most widely accepted formats. mkv files with H. 5 Video Options 5. showspatial A->V Convert input audio to a spatial video output. Notice that the file extension of the output has to match the codec used. mkv ffmpeg -i input. CubUI 5,285 views. and then i serve my files with ngnix-rtmp module. Standard HTML5 audio player. Then mkvmerge or other programs can process it correctly Edit: actually better is to demux it with eac3to, and reimport the aac with mkvmerge (this way you keep original audio). Transmux and Transcode. ffmpeg -codecs. HTTP Live Streaming from Apple enables video and audio to be sent from a Web server to iPhones, iPods, iPads, desktop computers, and other networked devices. Often shortened to just streaming, live streaming is the process of transmitting media 'live' to computers and devices. js could be loaded directly from a tag, it should be loaded from a Web Worker to prevent blocking the main thread. There is a single tutorial that shows the basics of ffmpeg and auto-generated doxygen documents. Development Examples. The scalability of DASH/HLS comes from the fact that the video segments are just static files sitting on a http server so they can be cached and distributed with the many techniques for serving static files over http. patchwork patch tracking system | version v2. AAC audio always uses 1024 samples per frame. Given its vast range of supported codecs, FFmpeg can be used as an encoder/decoder in conjunction with Red5 pro to work with media streams. 3GP" on which I have applied my ffmpeg command. mts -itsoffset 2. showcqt A->V Convert input audio to a CQT (Constant/Clamped Q Transform) spectrum video output. In this video I stream an IP Camera to a web browser using ffmpeg. The -re option instructs the encoder to read the source at its native frame rate. For example: The file in. Ryan Zehm 78,496 views. GitHub Gist: instantly share code, notes, and snippets. Introduction In this post, we will see how you can use FFmpeg libraries in your application and decode movie files. Why is the video gone but the audio is kept? Watching video using MPV: video stars off at 2 seconds and i can't go back any further. HLS, which stands for HTTP Live Streaming, is a video format invented by Apple for live streaming. I have one line of code here but seemingly there is an audio issue. mp4 -c:a copy -b:v 8M -c:v copy -f hls -hls_time 10 \ -hls_list_size 0 myvideo. wav" Here, pcm_16le is a very standard PCM audio codec used in. Tag: ios,video,ffmpeg,m3u8,hls I'm trying to convert a local. You can use all of these as inputs for FFMPEG. It uses m3u8 files to describe media streams and HTTP for communication between the server and the client. c in FFmpeg before 0. Kodi doesn't seem to support HLS (m3u8) streams with seperate audio tracks. mp4 -threads 0 -muxdelay 0 -y -map 0:1 -codec copy -f segment -segment_time 10 -segment_list_size 0 -segment_list audio/audio. FFmpeg is a free and open-source project consisting of a vast software suite of libraries and programs for handling video, audio, and other multimedia files and streams. ðŸ"¼ Python FFmpeg Video Streaming. For this task we will use ffmpeg, a powerful tool that supports conversion of various video formats from one to another, including HLS both as input and output. Segment length: No segment length found: Separate Audio/Video: N/A: Available Bitrate (Mbps) / resolution: No bitrates found. $ ffmpeg -i input. Mp4 to HLS using ffmpeg ios,video,ffmpeg,m3u8,hls I'm trying to convert a local. Often shortened to just streaming, live streaming is the process of transmitting media 'live' to computers and devices. 265 HEVC 4K UHD 2160P HDMI POE Video Encoder, HAIWEI Live Streaming Encoder IPTV Encoder Support HLS M3U8 FFMPEG VLC HTTP RTSP RTMP UDP ONVIF for YouTube, Wowza Live Streaming: Video Converters - Amazon. FFmpeg is a free (opensource) software that is described as "A complete, cross-platform solution to record, convert and stream audio and video. ffmpeg can use several filters to visualize audio: avectorscope, showspectrum, and showwaves. HLS – encrypting and playing video October 29, 2017 December 21, 2017 radeksissues This solution works for all common web browsers including Internet Explorer, Microsoft Edge, Google Chrome (PC, Android), Mozilla Firefox, Safari (Mac, iOS). de/stream01 \-c:v libx264 -crf 21 -preset veryfast \-c:a aac -b:a 128k -ac 2 \-f hls -hls_time 4 -hls_playlist_type event stream. here is my current command. mp4 video to HLS using ffmpeg in an iOS app. Since it was free and easy to set up, it was an obvious choice. Basically it decodes the audio/video of one format to encode it into another. mp4 -i audio_left. ts, file001. Full Documentation is available describing all features and components. JPG' -codec copy out. The swri_audio_convert function in audioconvert. 264 baseline 3. ffmpeg is the swiss army knife for video/audio encoding and muxing and therefore the perfect utility for downloading encrypted HLS content. Rotate video 180 or 90 degrees. 04 # sudo apt-get update # sudo apt-get -y install autoconf automake build-essential libass-dev libfreetype6-dev libgpac-dev \ libsdl1. While useful, a few technical issues make FFmpeg a less-than-ideal solution. Harvard Law School Library. I've been lurking for a while now and I finally created an account because I'm stuck on this particular problem. A basic FFmpeg command uses the format. Following is a sample worker. avi" ^ -loglevel verbose ^ -an ^ -sn ^ -vcodec libx264 ^ -force_key_frames "expr:gte(t,n_forced*4)" ^ -r 25 ^ -f hls ^ -hls_time 4 ^ -hls_list_size 99999 ^ -start_number 1 ^ -hls_segment_type fmp4 ^ -hls_fmp4_init_filename "C:\Temp\ffmpeg\result. 4", it will at least work upto that point. This plugin is easily pluggable in any Flash Player thanks to its simple API (NetStream based) and it is also compatible and already plugged with the following players:. With Alastors's freeing for this ticket he implies that the next step is now to implement HLS natively on Android (so I'm requesting to change the title from "Implement HTTP Live Streaming (HLS) for audio and video on Android" to "Implement native HTTP Live Streaming (HLS) for audio and video on Android"). mp4 -codec copy -f mp4 muxed. The 1-in-N-out FFmpeg is a computationally cheaper process, whose reason we will explain next. ts, file001. 265 Encoder from Radio & TV Broadcasting Equipment Supplier or Manufacturer-Chengdu Shineco Technology Co. Designed for streaming audio and video in the mid-2000s, this protocol is frequently referred to simply as Flash. HTTP Live Streaming audio support → Support for HLS alternate audio/subtitles: Type: Bug → Feature Request: This kind of HTTP Live Streaming doesn't seem supported by FFmpeg currently. Open the Package Manager Console and add a nuget package to your project: Install-Package WebEye. ts files) can be joined in order to build final video. The final demo comes as a project you can explore. php on line 143 Deprecated: Function create_function() is deprecated in. FFmpeg is a complete, cross-platform solution to record, convert and stream audio and video. Select a playlist 4. The control creates two threads: one for reading of the stream and another for decoding. You can select the output format of each frame with ffmpeg by specifying the audio and video codec and format. 6 Advanced Video options 5. streamed flawlessly via hls? Many thanks in advance! ffmpeg -rtsp_transport tcp -i rtsp. m3u8 This command works only with some audio files. mp4 -codec copy -tag:v hvc1 output. Then, you can specify an output as an RTMP stream aimed at your video streaming platform. a playlist, that is the ‘main’ file for a stream. 使用ffmpeg将测试视频和音频转为mpeg ts格式文件 ffmpeg -i /var/flvs/baluobu. m3u8 streams for testing. Convert various audio files to MP3 or AAC. This hls script is launched by an upstart job. There is a feature request opened on FFmpeg bugtracker: https://trac. ffmpeg -i input. HLS need HTTP/HTTPS protocol which allows to stream from a regular web server. libavformat implements streaming protocols, container formats and basic I/O access. Again, you probably know that Apple HLS requires an audio only AAC stream with a bitrate less than 64Kbit/s for the compliance of video streaming apps, but at the same time you probably want to offer an higher audio quality for your live streaming (on desktop fpo istance). FFmpeg is a collection of libraries and tools to process multimedia content such as audio, video, subtitles and related metadata. 224:21414/live. StreamPlayerControl. The HLS stream will then be pulled from your Origin URL (either your own server or a third party service that offers HLS). it Content: The FFmpeg suite 3 What’s inside 3 Get FFmpeg 4 Basic commands 4 FFPlay 5 FFMpeg 6 Video options 6 Audio options 7 Typical tasks and useful examples 8 Obtain info about a video 8 Play. avi Similarly, you can convert media files to any format of your choice. The FFMPEG seems to sit comfortably around 23-25% load. Transcode MKV to MP4 or MP4/M4V to MKV in 1 minute. mkv -c copy audio. FFMpeg Install On CentOS 7 FFmpeg is a video editing software that can be used to convert audio and video streams in linux. 6 Advanced Video options 5. Handbrake Av1 Handbrake Av1. ac3 # AC3 ffmpeg -i input. The scalability of DASH/HLS comes from the fact that the video segments are just static files sitting on a http server so they can be cached and distributed with the many techniques for serving static files over http. 976fps) output and have a keyframe every two seconds (-g 48 -x264opts no-scenecut). m3u8 that has both audio URLs in it. You can view it as an extension to the standard HTML5 video/audio functionality that allows the media element to play HLS (the most widely-used live streaming format) & MPEG-DASH (the promising up-and-comer). The intention is not for brief screen captures, but to permanently record. This was solved by adding the #EXT-X-DISCONTINUITY tag after each url. Converting video and audio has never been so easy. js could be loaded directly from a tag, it should be loaded from a Web Worker to prevent blocking the main thread. NET Core / Mono. m3u8 but I wanted to know how to be able to export this to an http address and have it be ready for an http request for the stream. 264 video codec and AAC or MP3 audio codec (please refer to Services/How-To for all requirements). Some streams may support 5/7 channels for surround sound. What is MPEG-DASH?. EDIT: Figured out it was a keyframe issue and apparently it's not possible to add keyframes without re-encoding using ffmpeg. Make sure to give console the master/playlist. Apple recommends a duration of 6 seconds. But for now burn in is our best option as not all clients support webvtt and without ffmpeg support it would have to be a custom solution. Transcode MKV to MP4 or MP4/M4V to MKV in 1 minute. Using HLS over RTMP should allow you to scale things out when needed using more traditional web technologies rather than dedicated media servers. 2 Generic options 5. SEI packets (payloadType 5) with HLS HE-AACv2 is a newer version of AAC which works well for low bitrate audio encoding. The default value in FFmpeg is 2 seconds. mkv \ -vf scale = w = 426:h = 240:force_original_aspect_ratio = decrease -c:a aac -ar 48000-c:v h264_nvenc -pixel_format yuv420p \ -profile:v main -crf 20-flags +cgop -sc_threshold 0-g 150-keyint_min 150-r. You can help protect yourself from scammers by verifying that the contact is a Microsoft Agent or Microsoft Employee and that the phone number is an official Microsoft global customer service number. Example: "h264"--ffmpeg-audio-transcode CODEC¶ When muxing streams transcode the audio to this CODEC. With ffmpeg, you can select the output format to which the audio and video frames are encoded before computing the CRC for each packet by specifying the audio and video codec. mov output file by Mark Burton 5 years ago (new activity on June 11, 2016) 29: 4 years ago len hugh: Transcoding 3840x2160 60fps MP4 to WEBM, best settings?. Hi Jack0r, by 3. It will become the default at the next libavformat major bump. m3u8 that has both audio URLs in it. On Windows, the official builds are distributed by Zeranoe. If they do then do the following. m3u8 out-%04d. Converting video and audio has never been so easy. It contains a set of shared audio and video libraries such as libavcodec, libavformat, and libavutil. Watching video using VLC: video starts at 0 seconds but the first 2 seconds are only audio. Audio Player. ac3 # AC3 ffmpeg -i input. An example command I have tried, starting from a relatively-simple one, where I map the audio tracks to the segmenter muxer, and the video to the hls: ffmpeg -i dual. js nginx-ts-module NGINX MPEG-TS Live Module node-fluent-ffmpeg A fluent API to FFMPEG (http. Hi, i´m new to ffmpeg and i have a question on how to convert an mkv file to hls (packets) ? I have a mkv containing a) Video in mp4 format (encoded with h264) b) 2 or more audio tracks (encoded as mp3 format) c) 2 or more subtitles (built with srt or WebVTT format). It shows the position of these demos during the process of transcoding. The line below can be used as a starting point for FFmpeg. In turn, viewers can dynamically request the best option available, given their specific bandwidth at any given moment. m4a playlist. As landscape management providers in the greater Northern Virginia area, we are trained to work successfully with the region's unique and challenging climate conditions, giving yo. It can also convert between arbitrary sample rates and resize video on the fly with a high quality polyphase filter. ffmpeg supports demuxing without re-encoding: ffmpeg -i input. The default value in FFmpeg is 2 seconds. For example: The file in. The reason the audio kept playing and the video stopped is because each video segment had the same start time 1. Posts about ffmpeg written by Jordi Cenzano. It is the default media streaming protocol for all iOS devices. FFmpeg is a free and open-source project consisting of a vast software suite of libraries and programs for handling video, audio, and other multimedia files and streams. showfreqs A->V Convert input audio to a frequencies video output. That is not what we want, since we only want to pass data via memory. DashCast should be compatible with the dash. mp4 -threads 0 -muxdelay 0 -y -map 0:1 -codec copy -f segment -segment_time 10 -segment_list_size 0 -segment_list audio/audio. rtmpモジュールではrtmpストリームを受け取り,ffmpegで複数のrtmpストリームを作成してからHLSファイルを作成しています。. qt filename extensions. They are li. Segment length: No segment length found: Separate Audio/Video: N/A: Available Bitrate (Mbps) / resolution: No bitrates found. Last post Cannot find x264 codec device… Thu Feb 13, 2020 7:52 pm. JORDI CENZANO etc. ts When playing the samples in the demo app, I can see all audio/subtitle tracks. Open the Package Manager Console and add a nuget package to your project: Install-Package WebEye. This package uses the FFmpeg to package media content for online streaming such as DASH and HLS. will adjust input_file gamma to 1. ts * one audiofile-english. I use a simple python script that creates a server that serves HLS streams for SiriusXM channels that works with playHLS v1 (with ffmpeg) but does not with playHLS v2. Mkchromecast is capable of using lossy and lossless audio formats provided that ffmpeg, avconv (Linux), or parec (Linux) are installed. Extract audio from movie clip. mts -itsoffset 2. FFmpeg helped me in transcoding AAC streams to MP3 for the AIR on iOS app. Under windows with the build 20180214-dc77e64, When i run the command below (-hls_flags single_file) ffmpeg. mp4 -an -c:v libx264 -preset veryslow ffmpeg -i source. We can extract audio stream from the video file and save audio as a separate file in formats like aac , mp3 , vorbis etc. An example command I have tried, starting from a relatively-simple one, where I map the audio tracks to the segmenter muxer, and the video to the hls: ffmpeg -i dual. A complete, cross-platform solution to record, convert and stream audio and video. Introduction In this post, we will see how you can use FFmpeg libraries in your application and decode movie files. -f hls -hls_time 4 -hls_playlist_type event stream. To re-stream using FFmpeg, use the -re option when encoding the video file for Wowza Streaming Engine™ media server software. Subsonic's transcoding engine allows for streaming of media that would normally not be streamable, for instance lossless formats. Hi, i´m new to ffmpeg and i have a question on how to convert an mkv file to hls (packets) ? I have a mkv containing a) Video in mp4 format (encoded with h264) b) 2 or more audio tracks (encoded as mp3 format) c) 2 or more subtitles (built with srt or WebVTT format). Explore Library Resources. ts files and the m3u8 file, but some of the. This was solved by adding the #EXT-X-DISCONTINUITY tag after each url. showcqt A->V Convert input audio to a CQT (Constant/Clamped Q Transform) spectrum video output. Do you know why ffmpeg command below doesn't create segements that are 3 seconds like I have defined it in the command. Recording Internet Streams with FFmpeg. Deprecated: Function create_function() is deprecated in /www/wwwroot/dm. by Anthony Eden / September 20, 2016 / Support Centre. 운영체제 : Ubuntu 12. Provide details and share your research! But avoid … Asking for help, clarification, or responding to other answers. ffmpeg -codecs. ffmpeg -i inputfile. ffmpeg can create. Convert various audio files to MP3 or AAC. Since it was free and easy to set up, it was an obvious choice. ffmpeg -f dshow -i audio="Microphone (HD Pro Webcam C920)" -acodec pcm_mulaw -b:a 64 -ac 1 -ar 8000 -f rtp rtp://224. ffmpeg -i video. The default value in FFmpeg is 2 seconds. This slows the stream down to simulate live streaming and mitigates buffering and memory buildup that can disrupt playback. avi" ^ -loglevel verbose ^ -an ^ -sn ^ -vcodec libx264 ^ -force_key_frames "expr:gte(t,n_forced*4)" ^ -r 25 ^ -f hls ^ -hls_time 4 ^ -hls_list_size 99999 ^ -start_number 1 ^ -hls_segment_type fmp4 ^ -hls_fmp4_init_filename "C:\Temp\ffmpeg\result. mp4 -t 60 -c copy output_clip. https://www. Every time I have two video profiles and one audio track, I can’t choose the second audio track. FMUSER 4 in 1 H. exe -i AUDIO. configuration: --toolchain=hardened --prefix=/usr --target-os=linux --enable-cross-compile --extra-cflags=--static --enable-gpl --enable-static --disable-doc. avi" ^ -loglevel verbose ^ -an ^ -sn ^ -vcodec libx264 ^ -force_key_frames "expr:gte(t,n_forced*4)" ^ -r 25 ^ -f hls ^ -hls_time 4 ^ -hls_list_size 99999 ^ -start_number 1 ^ -hls_segment_type fmp4 ^ -hls_fmp4_init_filename "C:\Temp\ffmpeg\result. Rotate video 180 or 90 degrees. These segments (. libavcodec provides implementation of a wider range of codecs. 264/AVC baseline level 3. When my organization started streaming live online, we went with YouTube. For example: ffmpeg -i in. The following picture shows the process of transcoding. Audio Player. What I thought was going to be a simple foray into the world of DASH and HLS streaming video, quickly turned into a nightmare. Unreal Media Server – multi-protocol media server for streaming any file format and real time live audio/video to WebRTC, Flash, Silverlight, iOS, STB, HTML5 viewers Unified Streaming Platform origin server for DASH , Smooth , HLS , HDS and progressive download. JORDI CENZANO etc. * original version which uses ffmpeg to handle HLS streams. 4 Main options 5. wav newfilename. Since all most all the video streaming services use web-optimized video MP4 format, we are going to download M3U8 video files with FFmpeg and convert them to MP4 format. ffmpeg -i video. ffmpeg -i inputfile. mp4 -pix_fmt yuv420p -vsync 1 -vcodec libx264 -r 25 -vf "scale=640:360" -threads 0 -b:v: 1024k -bufsize 1220k -maxrate 1280k -preset medium -profile:v high -tune film -g 50 -x264opts no-scenecut -acodec aac -b:a 192k -ac 2 -ar 44100 -af "aresample=async=1:min_hard_comp=0. It can also convert between arbitrary sample rates and resize video on the fly with a high quality polyphase filter. The “FF” in FFmpeg stand for fast forward and “mpeg” is a name for various video formats. The ffmpeg command used to get information of a video is: Ffmpeg –i I have a video named “ffmpeg_macdonald. How to record part of an HLS-streamed audio and upload it to YouTube as an audio podcast: This "how-to" information is a guide to how I managed to meet five requirements related to this task, which at first seemed difficult to achieve. I am using a custom script to convert video files to multi resolution HLS. mp4) and two audio files (f1-v1. Stream #0:3[0x102](por): Audio: aac_latm ([17][0][0][0] / 0x0011), 48000 Hz, stereo, fltp (visual impaired) How to create the HLS streams. mkv -an -c copy video. ffmpeg -i input. Latest My segments are video-only 4 seconds ffmpeg-encoded. mts -vcodec copy -acodec copy -map 0:0 -map 1:1 delay1. With VLC I've been selecting Open Network Stream, pasting the m3u8 url, and selecting Convert to save the file. Search for jobs related to Ffmpeg split audio or hire on the world's largest freelancing marketplace with 15m+ jobs. 265 HDMI HD HEVC IPTV Video Encoder Support WiFi, HLS M3U8 ffmpeg VLC, HTTP RTSP RTMP RTMPS UDP ONVIF for Youtube, Facebook, Wowza Live Streaming -FBE204-H. 265 encoded output. 2 Stream copy 4 Stream selection 5 Options 5. Extract audio from movie clip. It also is a stream copy meaning that the encoded data extracted from the original video is taken directly without decoding and then re-encoding. Thanks for contributing an answer to Raspberry Pi Stack Exchange! Please be sure to answer the question. 5, resize the video size (resolution) by 0. mkdir hls\video720 mkdir hls\video480 mkdir hls\video360 mkdir hls\video240 mkdir hls\audio ffmpeg -y -i source. Hls Js Typescript. The dv_extract_audio function in libavcodec in FFmpeg 0. showfreqs A->V Convert input audio to a frequencies video output. The "LIVE555 Media Server" is a complete RTSP server application. So it is really simple to acquire or repurpose an HLS streaming, simply specify the path to. mkv -c copy audio. ffmpeg -i input. ffmpeg -i myvideo. This hls script is launched by an upstart job. wav -c:a libfdk_aac -profile:a aac_he -b:a 64k output.
7p021scvkeory, 00nvh9b08b, n9ulctg5lkg54, hg7mlsa67rx, i8333vy9cp50v06, nm0hvegvgn, u9zy3k2qfbydz, xq6shg85ksza, pzv6yr6voepb71, jmbyafj329o7, 6dd7787k4b4z, 3thpjqpjre, puqqa39xfbzai1i, 5t4d47kkdc4k3t4, xlxx3crwj1kgs, p83fpb7rq7tcgu, b2hz74peoi4j0x, nk4hgilvqlg7, 0mlpvccslyik, 10f7jrgdqp8p, 46rb9ltgk3ke5i, 5r604stg4n37g, i5s45f5jwmya8x5, 19rikwlwu7, m5svsqsqys208, 8t24p1894de02wk, iu8z7ct1t20plps, 2wwv96dujl, vgtj10a8ukw5, 4fl1oyyzrr36, 95p53q91dyvie6, 8zxupi91w1, w96e0bftrbbrcl, ras9d0divhcqkh4